The Deuce ( 2017 ) | مشاهدة فيلم The Intern 2015 مترجم اون لاين مشاهدة وتحميل فيلم The Intern 2015 HD مترجم اون لاين وتحميل مباشر | zz Anthologies


Music » Music Video :

Grateful Dead - Long Strange Trip - The Untold Story of the Grateful Dead (720p)

      Author: Cherry.Baby   |   7 June 2017   |   comments: 0



http://sv1.upsieutoc.com/2017/06/07/long.jpg

Grateful Dead - Long Strange Trip - The Untold Story of the Grateful Dead (720p)
Release: 2017
MP4 | H264 3522 Kbps | 1280x720 30.00fps | AAC Stereo | 4h 02mn | 5.97 GB
Genre: Music Video | Soul

The tale of the Grateful Dead is inspiring, complicated, and downright messy. A tribe of contrarians, they made art out of open-ended chaos and inadvertently achieved success on their own terms. Never-before-seen footage and interviews offer this unprecedented and unvarnished look at the life of the Dead.
General
Complete name : Long.Strange.Trip.2017.720p-nnJ.mp4
Format : MPEG-4
Format profile : Base Media
Codec ID : isom (isom/iso2/avc1/mp41)
File size : 5.97 GiB
Duration : 4 h 2 min
Overall bit rate mode : Constant
Overall bit rate : 3 522 kb/s
Writing application : Lavf57.72.101

Video
ID : 1
Format : AVC
Format/Info : Advanced Video Codec
Format profile : [email protected]
Format settings, CABAC : Yes
Format settings, ReFrames : 5 frames
Codec ID : avc1
Codec ID/Info : Advanced Video Coding
Duration : 4 h 2 min
Bit rate mode : Constant
Bit rate : 3 500 kb/s / 3 500 kb/s
Width : 1 280 pixels
Height : 720 pixels
Display aspect ratio : 16:9
Frame rate mode : Constant
Frame rate : 30.000 FPS
Standard : Component
Color space : YUV
Chroma subsampling : 4:2:0
Bit depth : 8 bits
Scan type : Progressive
Bits/(Pixel*Frame) : 0.127
Stream size : 5.69 GiB (95%)
Writing library : x264 core 144
Encoding settings : cabac=1 / ref=5 / deblock=1:0:0 / analyse=0x3:0x113 / me=hex / subme=7 / psy=1 / psy_rd=1.00:0.00 / mixed_ref=1 / me_range=16 / chroma_me=1 / trellis=1 / 8x8dct=1 / cqm=1 / deadzone=21,11 / fast_pskip=1 / chroma_qp_offset=-2 / threads=6 / lookahead_threads=1 / sliced_threads=0 / slices=1 / nr=0 / decimate=1 / interlaced=0 / minigop=0 / stitchable=1 / constrained_intra=0 / bframes=3 / b_pyramid=0 / b_adapt=1 / b_bias=0 / direct=1 / weightb=1 / open_gop=0 / weightp=2 / keyint=250 / keyint_min=25 / scenecut=40 / intra_refresh=0 / rc_lookahead=40 / rc=cbr / mbtree=1 / bitrate=3500 / ratetol=1.0 / qcomp=0.60 / qpmin=3 / qpmax=69 / qpstep=4 / vbv_maxrate=3500 / vbv_bufsize=3500 / nal_hrd=cbr / filler=1 / ip_ratio=1.40 / aq=1:1.00
Color range : Limited
Color primaries : BT.709
Transfer characteristics : BT.709
Matrix coefficients : BT.709

Audio
ID : 2
Format : AAC
Format/Info : Advanced Audio Codec
Format profile : LC
Codec ID : 40
Duration : 4 h 2 min
Duration_LastFrame : -17 ms
Bit rate mode : Constant
Bit rate : 157 kb/s
Channel(s) : 2 channels
Channel positions : Front: L R
Sampling rate : 48.0 kHz
Frame rate : 46.875 FPS (1024 spf)
Compression mode : Lossy
Stream size : 273 MiB (4%)
Default : Yes
Alternate group : 1

Screenshots

http://sv1.upsieutoc.com/2017/06/07/Long.Strange.Trip.2017.720p-nnJ.jpg

http://i58.fastpic.ru/big/2013/1118/d7/ba5c5b5892f3b006dd5a23669e4462d7.jpg

(All below links are interchangable. No password)
Buy Premium To Support Me & Get Resumable Support & Max Speed

 Fast File Downloader



Information
Would you like to leave your comment? Please Login to your account to leave comments. Don't have an account? You can create a free account now.
Home        |        Register        |        Forums        |        RSS        |        Rules        |        DMCA Policy        |        Contact Us
DISCLAIMER
None of the files shown here are hosted or transmitted by this server. The links are provided solely by this site's users. The administrator of this site (dl4all.ws) cannot be held responsible for what its users post, or any other actions of its users. You may not use this site to distribute or download any material when you do not have the legal rights to do so. It is your own responsibility to adhere to these terms.

Copyright © 2006-2012 Dl4All. All rights reserved.